Wir haben eine neue Vorabversion (BETA!)

Klicke hier um die neue Vorabversion zu testen.

Beyblade Metal Fury - 15 - Destroyer Dome (396p|.avi|xvid|mp3) ~bY C-W [01/16] - "Beyblade_Metal_Fury_-_15_-_Destroyer_Dome_[C-W].avi.001"
Wenn beim Streamen kein Ton abspielt wird, liegt das vermutlich am benutzen Audiocodec, der von Deinem Gerät nicht erkannt wird. Versuche einen anderen Browser oder lade die Originaldatei im 'Dateien'-Reiter auf Dein Gerät und öffne sie mit einem installierten Player.
Lass auch du deine Bewertung da!
Beyblade_Metal_Fury_-_15_-_Destroyer_Dome_[C-W].avi 6C31EA8C 161057970bytes [email protected]:20.12
____________________________________________________________________________________________||||||||
for http://www.animeusenet.org and http://www.fanzub.com/ on alt.binaries.multimedia.anime.highspeed
			          )     *     (              )  
			   (   ( /(   (  `    )\ )        ( /(  
			   )\  )\())  )\))(  (()/(    (   )\()) 
			 (((_)((_)\  ((_)()\  /(_))   )\ ((_)\  
			 )\___  ((_) (_()((_)(_))_|_ ((_) _((_) 
			((/ __|/ _ \ |  \/  || |_ | | | || \| | 
			 | (__| (_) || |\/| || __|| |_| || .` | 
			  \___|\___/ |_|  |_||_|   \___/ |_|\_|
___________________________Powered bY Flexget, Transmission, Cksfv, Mediainfo, Yencee, Newsmangler !
-! Thanks the fansubs teams and nyaa, edwardK, minglong, bakabt, baka-updates, animsuki, tokyotosho!
-! More infos about the series and the teams available on http://anidb.net
-! Get NZB from http://www.fanzub.com/?q=&cat=anime if not available on http://www.animeusenet.org
-! To set up automatic downloading take a look at FlexGet, http://flexget.com/
-! If you want to chat, join us at irc://irc.irchighway.net/abmad,needkey  passkey: banter
-! Request group is alt.binaries.multimedia.anime.d
----------------------------------------------------------------------------------------------------
-! Mediainfo                     :
----------------------------------------------------------------------------------------------------
General
Complete name                    : Beyblade_Metal_Fury_-_15_-_Destroyer_Dome_[C-W].avi
Format                           : AVI
Format/Info                      : Audio Video Interleave
File size                        : 154 MiB
Duration                         : 22mn 19s
Overall bit rate                 : 962 Kbps
Writing library                  : VirtualDub build 35376/release

Video
ID                               : 0
Format                           : MPEG-4 Visual
Format profile                   : Advanced [email protected]
Format settings, BVOP            : 1
Format settings, QPel            : No
Format settings, GMC             : No warppoints
Format settings, Matrix          : Default (H.263)
Muxing mode                      : Packed bitstream
Codec ID                         : XVID
Codec ID/Hint                    : XviD
Duration                         : 22mn 19s
Bit rate                         : 822 Kbps
Width                            : 704 pixels
Height                           : 396 pixels
Display aspect ratio             : 16:9
Frame rate                       : 29.970 fps
Color space                      : YUV
Chroma subsampling               : 4:2:0
Bit depth                        : 8 bits
Scan type                        : Progressive
Compression mode                 : Lossy
Bits/(Pixel*Frame)               : 0.098
Stream size                      : 131 MiB (85%)
Writing library                  : XviD 72

Audio
ID                               : 1
Format                           : MPEG Audio
Format version                   : Version 1
Format profile                   : Layer 3
Mode                             : Joint stereo
Mode extension                   : MS Stereo
Codec ID                         : 55
Codec ID/Hint                    : MP3
Duration                         : 22mn 19s
Bit rate mode                    : Constant
Bit rate                         : 128 Kbps
Channel(s)                       : 2 channels
Sampling rate                    : 48.0 KHz
Compression mode                 : Lossy
Stream size                      : 20.4 MiB (13%)
Alignment                        : Split accross interleaves
Interleave, duration             : 33 ms (1.00 video frame)
Interleave, preload duration     : 500 ms


Cloud Download
Datum
27.01.2013 10:21:09
Größe
182.75 MB
Uploader
Comfun
Newsgroup
alt.binaries.multimedia.anime.highspeed