Wir haben eine neue Vorabversion (BETA!)

Klicke hier um die neue Vorabversion zu testen.

Ostwind (2015) (German) MD TS XviD - UTC 01
Wenn beim Streamen kein Ton abspielt wird, liegt das vermutlich am benutzen Audiocodec, der von Deinem Gerät nicht erkannt wird. Versuche einen anderen Browser oder lade die Originaldatei im 'Dateien'-Reiter auf Dein Gerät und öffne sie mit einem installierten Player.
Lass auch du deine Bewertung da!
Bananadidi 10 days ago
Danke, alles Top

Ostwind 2


Format                                   : AVI
Format/Info                              : Audio Video Interleave
File size                                : 1120 MiB
Duration                                 : 1h 48mn
Overall bit rate                         : 1 012 Kbps
Writing application                      : AVI-Mux GUI 1.17.8.3, May 18 2015 12:42:50
Writing library                          : VirtualDub build 35491/release

Video
ID                                       : 0
Format                                   : MPEG-4 Visual
Format profile                           : Advanced [email protected]
Format settings, BVOP                    : 2
Format settings, QPel                    : No
Format settings, GMC                     : No warppoints
Format settings, Matrix                  : Default (H.263)
Muxing mode                              : Packed bitstream
Codec ID                                 : XVID
Codec ID/Hint                            : XviD
Duration                                 : 1h 48mn
Bit rate                                 : 829 Kbps
Width                                    : 720 pixels
Height                                   : 304 pixels
Display aspect ratio                     : 2.35:1
Frame rate                               : 59.880 fps
Color space                              : YUV
Chroma subsampling                       : 4:2:0
Bit depth                                : 8 bits
Scan type                                : Progressive
Compression mode                         : Lossy
Bits/(Pixel*Frame)                       : 0.063
Stream size                              : 941 MiB (82%)
Writing library                          : XviD 64

Audio
ID                                       : 1
Format                                   : MPEG Audio
Format version                           : Version 1
Format profile                           : Layer 3
Mode                                     : Joint stereo
Mode extension                           : MS Stereo
Codec ID                                 : 55
Codec ID/Hint                            : MP3
Duration                                 : 1h 48mn
Bit rate mode                            : Constant
Bit rate                                 : 160 Kbps
Channel(s)                               : 2 channels
Sampling rate                            : 44.1 KHz
Compression mode                         : Lossy
Stream size                              : 179 MiB (16%)
Alignment                                : Split accross interleaves
Interleave, duration                     : 17 ms (1.00 video frame)
Interleave, preload duration             : 500 ms
Writing library                          : LAME3.99.5
Cloud Download
Datum
18.05.2015 22:52:59
Größe
1.07 GB
Uploader
uranos01
Newsgroup
alt.binaries.hdtv.german