"Queen - Dvd Collection Deel 2" - [002/354] - "Queen - Dvd Collection Deel 2.part001.rar"
Wenn beim Streamen kein Ton abspielt wird, liegt das vermutlich am benutzen Audiocodec, der von Deinem Gerät nicht erkannt wird. Versuche einen anderen Browser oder lade die Originaldatei im 'Dateien'-Reiter auf Dein Gerät und öffne sie mit einem installierten Player.
Lass auch du deine Bewertung da!
General
Format                                   : Matroska
Format version                           : Version 4
File size                                : 10.9 GiB
Duration                                 : 1 h 58 min
Overall bit rate                         : 13.2 Mb/s
Movie name                               : Queen - Days Of Our Lives (2011)
Encoded date                             : UTC 2018-09-30 21:40:39
Writing application                      : mkvmerge v8.1.0 ('Psychedelic Postcard') 64bit
Writing library                          : libebml v1.3.1 + libmatroska v1.4.2
Cover                                    : Yes
Attachments                              : cover.jpg / small_cover.png / cover_land.png / small_cover_land.jpg

Video
ID                                       : 1
Format                                   : AVC
Format/Info                              : Advanced Video Codec
Format profile                           : [email protected]
Format settings                          : CABAC / 4 Ref Frames
Format settings, CABAC                   : Yes
Format settings, RefFrames               : 4 frames
Codec ID                                 : V_MPEG4/ISO/AVC
Duration                                 : 1 h 58 min
Bit rate                                 : 12.5 Mb/s
Width                                    : 1 920 pixels
Height                                   : 1 080 pixels
Display aspect ratio                     : 16:9
Frame rate mode                          : Constant
Frame rate                               : 29.970 (30000/1001) FPS
Color space                              : YUV
Chroma subsampling                       : 4:2:0
Bit depth                                : 8 bits
Scan type                                : Progressive
Bits/(Pixel*Frame)                       : 0.202
Stream size                              : 10.4 GiB (95%)
Title                                    : Queen - Days Of Our Lives (2011)
Writing library                          : x264 core 116 r2074 2641b9e
Encoding settings                        : cabac=1 / ref=4 / deblock=1:-1:-1 / analyse=0x3:0x133 / me=umh / subme=11 / psy=1 / psy_rd=1.00:0.00 / mixed_ref=1 / me_range=32 / chroma_me=1 / trellis=2 / 8x8dct=1 / cqm=0 / deadzone=21,11 / fast_pskip=1 / chroma_qp_offset=-2 / threads=12 / sliced_threads=0 / nr=0 / decimate=1 / interlaced=0 / bluray_compat=0 / constrained_intra=0 / bframes=5 / b_pyramid=2 / b_adapt=2 / b_bias=0 / direct=3 / weightb=1 / open_gop=0 / weightp=2 / keyint=250 / keyint_min=1 / scenecut=60 / intra_refresh=0 / rc_lookahead=60 / rc=2pass / mbtree=1 / bitrate=12535 / ratetol=1.0 / qcomp=0.60 / qpmin=0 / qpmax=69 / qpstep=4 / cplxblur=20.0 / qblur=0.5 / vbv_maxrate=40000 / vbv_bufsize=40000 / nal_hrd=none / ip_ratio=1.40 / aq=1:1.00
Language                                 : English
Default                                  : Yes
Forced                                   : No

Audio
ID                                       : 2
Format                                   : AC-3
Format/Info                              : Audio Coding 3
Commercial name                          : Dolby Digital
Codec ID                                 : A_AC3
Duration                                 : 1 h 58 min
Bit rate mode                            : Constant
Bit rate                                 : 640 kb/s
Channel(s)                               : 2 channels
Channel layout                           : L R
Sampling rate                            : 48.0 kHz
Frame rate                               : 31.250 FPS (1536 SPF)
Bit depth                                : 16 bits
Compression mode                         : Lossy
Stream size                              : 542 MiB (5%)
Title                                    : AC3 640kbps 2ch
Language                                 : English
Service kind                             : Complete Main
Default                                  : Yes
Forced                                   : No

Text #1
ID                                       : 3
Format                                   : UTF-8
Codec ID                                 : S_TEXT/UTF8
Codec ID/Info                            : UTF-8 Plain Text
Duration                                 : 1 h 58 min
Bit rate                                 : 96 b/s
Count of elements                        : 1760
Stream size                              : 83.7 KiB (0%)
Title                                    : English
Language                                 : English
Default                                  : No
Forced                                   : No

Text #2
ID                                       : 4
Format                                   : UTF-8
Codec ID                                 : S_TEXT/UTF8
Codec ID/Info                            : UTF-8 Plain Text
Duration                                 : 1 h 58 min
Bit rate                                 : 73 b/s
Count of elements                        : 1651
Stream size                              : 63.6 KiB (0%)
Title                                    : Italiano
Language                                 : Italian
Default                                  : Yes
Forced                                   : No

Text #3
ID                                       : 5
Format                                   : UTF-8
Codec ID                                 : S_TEXT/UTF8
Codec ID/Info                            : UTF-8 Plain Text
Duration                                 : 1 h 58 min
Bit rate                                 : 78 b/s
Count of elements                        : 1651
Stream size                              : 68.0 KiB (0%)
Title                                    : French
Language                                 : French
Default                                  : No
Forced                                   : No

Text #4
ID                                       : 6
Format                                   : UTF-8
Codec ID                                 : S_TEXT/UTF8
Codec ID/Info                            : UTF-8 Plain Text
Duration                                 : 1 h 58 min
Bit rate                                 : 82 b/s
Count of elements                        : 1634
Stream size                              : 71.5 KiB (0%)
Title                                    : German
Language                                 : German
Default                                  : No
Forced                                   : No

Text #5
ID                                       : 7
Format                                   : UTF-8
Codec ID                                 : S_TEXT/UTF8
Codec ID/Info                            : UTF-8 Plain Text
Duration                                 : 1 h 58 min
Bit rate                                 : 89 b/s
Count of elements                        : 1462
Stream size                              : 77.8 KiB (0%)
Title                                    : Spanish
Language                                 : Spanish
Default                                  : No
Forced                                   : No

Text #6
ID                                       : 8
Format                                   : UTF-8
Codec ID                                 : S_TEXT/UTF8
Codec ID/Info                            : UTF-8 Plain Text
Duration                                 : 1 h 58 min
Bit rate                                 : 79 b/s
Count of elements                        : 1655
Stream size                              : 68.6 KiB (0%)
Title                                    : Portuguese
Language                                 : Portuguese
Default                                  : No
Forced                                   : No

Menu
00:00:00.000                             : :00:00:00.000
00:10:51.718                             : :00:10:51.718
00:20:51.817                             : :00:20:51.817
00:25:11.844                             : :00:25:11.844
00:36:38.530                             : :00:36:38.530
00:41:21.713                             : :00:41:21.713
00:51:33.824                             : :00:51:33.824
00:55:14.945                             : :00:55:14.945
00:58:34.811                             : :00:58:34.811
00:59:07.778                             : :00:59:07.778
01:09:10.880                             : :01:09:10.880
01:19:42.411                             : :01:19:42.411
01:25:09.004                             : :01:25:09.004
01:30:36.064                             : :01:30:36.064
01:40:36.964                             : :01:40:36.964
01:45:52.112                             : :01:45:52.112
01:50:01.695                             : :01:50:01.695
01:57:15.462                             : :01:57:15.462
01:58:17.557                             : :01:58:17.557

Cloud Download
Datum
07.01.2019 23:12:41
Größe
37.8 GB
Uploader
[email protected] (SolidSnake)
Newsgroup
alt.binaries.dvd