Wir haben eine neue Vorabversion (BETA!)

Klicke hier um die neue Vorabversion zu testen.

VRBangers.17.02.23.Cayla.Lyons.XXX.1920p60.AVC_180_3dh.mp4 [10/46] - "VRBangers.17.02.23.Cayla.Lyons.XXX.1920p60.AVC_180_3dh.mp4.r06"
Wenn beim Streamen kein Ton abspielt wird, liegt das vermutlich am benutzen Audiocodec, der von Deinem Gerät nicht erkannt wird. Versuche einen anderen Browser oder lade die Originaldatei im 'Dateien'-Reiter auf Dein Gerät und öffne sie mit einem installierten Player.
Lass auch du deine Bewertung da!
General
Complete name                            : VRBangers.17.02.23.Cayla.Lyons.XXX.1920p60.AVC_180_3dh.mp4
Format                                   : MPEG-4
Format profile                           : Base Media / Version 2
Codec ID                                 : mp42 (mp42/mp41)
File size                                : 3.45 GiB
Duration                                 : 24 min 17 s
Overall bit rate mode                    : Variable
Overall bit rate                         : 20.3 Mb/s
Encoded date                             : UTC 2017-02-05 20:48:12
Tagged date                              : UTC 2017-02-05 20:55:50
TIM                                      : 00:00:00:00
TSC                                      : 60
TSZ                                      : 1

Video
ID                                       : 1
Format                                   : AVC
Format/Info                              : Advanced Video Codec
Format profile                           : [email protected]
Format settings                          : CABAC / 3 Ref Frames
Format settings, CABAC                   : Yes
Format settings, ReFrames                : 3 frames
Codec ID                                 : avc1
Codec ID/Info                            : Advanced Video Coding
Duration                                 : 24 min 17 s
Bit rate                                 : 20.1 Mb/s
Width                                    : 3 840 pixels
Height                                   : 1 920 pixels
Display aspect ratio                     : 2.000
Frame rate mode                          : Constant
Frame rate                               : 60.000 FPS
Standard                                 : NTSC
Color space                              : YUV
Chroma subsampling                       : 4:2:0
Bit depth                                : 8 bits
Scan type                                : Progressive
Bits/(Pixel*Frame)                       : 0.045
Stream size                              : 3.41 GiB (99%)
Language                                 : English
Encoded date                             : UTC 2017-02-05 20:48:12
Tagged date                              : UTC 2017-02-05 20:48:12
Color range                              : Limited
Color primaries                          : BT.709
Transfer characteristics                 : BT.709
Matrix coefficients                      : BT.709
Codec configuration box                  : avcC

Audio
ID                                       : 2
Format                                   : AAC LC
Format/Info                              : Advanced Audio Codec Low Complexity
Codec ID                                 : mp4a-40-2
Duration                                 : 24 min 17 s
Source duration                          : 24 min 17 s
Bit rate mode                            : Variable
Bit rate                                 : 192 kb/s
Maximum bit rate                         : 297 kb/s
Channel(s)                               : 2 channels
Channel layout                           : L R
Sampling rate                            : 44.1 kHz
Frame rate                               : 43.066 FPS (1024 SPF)
Compression mode                         : Lossy
Stream size                              : 32.9 MiB (1%)
Source stream size                       : 33.0 MiB (1%)
Language                                 : English
Encoded date                             : UTC 2017-02-05 20:48:12
Tagged date                              : UTC 2017-02-05 20:48:12


Cloud Download
Datum
12.02.2019 15:25:40
Größe
3.56 GB
Uploader
NewsUP <[email protected]>
Newsgroup
alt.binaries.erotica