Edge.Of.Tomorow.2014.3D-HALF.SBS.French.1080p.-AC3
Wenn beim Streamen kein Ton abspielt wird, liegt das vermutlich am benutzen Audiocodec, der von Deinem Gerät nicht erkannt wird. Versuche einen anderen Browser oder lade die Originaldatei im 'Dateien'-Reiter auf Dein Gerät und öffne sie mit einem installierten Player.
Lass auch du deine Bewertung da!
12/03/2015

http://www.allocine.fr/film/fichefilm_gen_cfilm=185030.html

Date de sortie 	4 juin 2014 (1h53min) 
R?alis? par 	Doug Liman
Avec 	Tom Cruise, Emily Blunt, Bill Paxton plus
Genre 	Science fiction , Action
Nationalit? 	Am?ricain , australien


Synopsis :

Dans un futur proche, des hordes d'extraterrestres ont livr? une bataille 
acharn?e contre la Terre et semblent d?sormais invincibles: aucune arm?e au 
monde n'a r?ussi ? les vaincre. Le commandant William Cage, qui n'a jamais 
combattu de sa vie, est envoy?, sans la moindre explication, dans ce qui 
ressemble ? une mission-suicide. Il meurt en l'espace de quelques minutes et 
se retrouve projet? dans une boucle temporelle, condamn? ? revivre le m?me 
combat et ? mourir de nouveau ind?finiment?

================================================================================
*                        Fichiers contenus dans le post                        *
================================================================================
Edge.Of.Tomorow.2014.3D-HALF.SBS.French.1080p.-AC3.mkv                  01:53:29
================================================================================
* Duree totale du post .........: 01:53:29                                     *
* Taille totale du post ........: 10.32 Go                                     *
================================================================================

================================================================================
*            Edge.Of.Tomorow.2014.3D-HALF.SBS.French.1080p.-AC3.mkv            *
================================================================================
* Format                        : Matroska                                     *
* Format version                : Version 4 / Version 2                        *
* File size                     : 10.3 GiB                                     *
* Duration                      : 1h 53mn                                      *
* Overall bit rate              : 13.0 Mbps                                    *
* Encoded date                  : UTC 2015-03-12 08:08:54                      *
* Writing application           : mkvmerge v7.2.0 ('On Every Street') 64bit bu *
* Writing library               : libebml v1.3.0 + libmatroska v1.4.1          *
* DURATION                      : 01:52:49.554000000                           *
* NUMBER_OF_FRAMES              : 2686                                         *
* NUMBER_OF_BYTES               : 15562240                                     *
* _STATISTICS_WRITING_APP       : mkvmerge v7.2.0 ('On Every Street') 64bit bu *
* _STATISTICS_WRITING_DATE_UTC  : 2015-03-12 08:08:54                          *
* _STATISTICS_TAGS              : BPS DURATION NUMBER_OF_FRAMES NUMBER_OF_BYTE *
* ================================== Video =================================== *
* ID                            : 1                                            *
* Format                        : AVC                                          *
* Format/Info                   : Advanced Video Codec                         *
* Format profile                : [email protected]                                    *
* Format settings, CABAC        : Yes                                          *
* Format settings, ReFrames     : 4 frames                                     *
* Codec ID                      : V_MPEG4/ISO/AVC                              *
* Duration                      : 1h 53mn                                      *
* Bit rate                      : 12.1 Mbps                                    *
* Width                         : 1 920 pixels                                 *
* Height                        : 1 080 pixels                                 *
* Display aspect ratio          : 16:9                                         *
* Frame rate                    : 23.976 fps                                   *
* Color space                   : YUV                                          *
* Chroma subsampling            : 4:2:0                                        *
* Bit depth                     : 8 bits                                       *
* Scan type                     : Progressive                                  *
* Bits/(Pixel*Frame)            : 0.244                                        *
* Stream size                   : 9.60 GiB (93%)                               *
* Writing library               : x264 core 133 r2334kMod a3ac64b              *
* Default                       : Yes                                          *
* Forced                        : No                                           *
* DURATION                      : 01:53:26.925000000                           *
* NUMBER_OF_FRAMES              : 163203                                       *
* NUMBER_OF_BYTES               : 10516199202                                  *
* _STATISTICS_WRITING_APP       : mkvmerge v7.2.0 ('On Every Street') 64bit bu *
* _STATISTICS_WRITING_DATE_UTC  : 2015-03-12 08:08:54                          *
* _STATISTICS_TAGS              : BPS DURATION NUMBER_OF_FRAMES NUMBER_OF_BYTE *
* ================================= Audio #1 ================================= *
* ID                            : 2                                            *
* Format                        : AC-3                                         *
* Format/Info                   : Audio Coding 3                               *
* Mode extension                : CM (complete main)                           *
* Format settings, Endianness   : Big                                          *
* Codec ID                      : A_AC3                                        *
* Duration                      : 1h 53mn                                      *
* Bit rate mode                 : Constant                                     *
* Bit rate                      : 640 Kbps                                     *
* Channel(s)                    : 6 channels                                   *
* Channel positions             : Front: L C R, Side: L R, LFE                 *
* Sampling rate                 : 48.0 KHz                                     *
* Bit depth                     : 16 bits                                      *
* Compression mode              : Lossy                                        *
* Stream size                   : 520 MiB (5%)                                 *
* Language                      : French                                       *
* Default                       : Yes                                          *
* Forced                        : No                                           *
* ================================= Texte #1 ================================= *
* ID                            : 3                                            *
* Format                        : PGS                                          *
* Muxing mode                   : zlib                                         *
* Codec ID                      : S_HDMV/PGS                                   *
* Codec ID/Info                 : The same subtitle format used on BDs/HD-DVDs *
* Language                      : French                                       *
* Default                       : No                                           *
* Forced                        : No                                           *
* ================================= Menu #1 ================================== *
* 00:00:00.000                  : en:00:00:00.000                              *
* 00:10:28.169                  : en:00:10:28.169                              *
* 00:17:39.100                  : en:00:17:39.100                              *
* 00:24:50.197                  : en:00:24:50.197                              *
* 00:35:57.947                  : en:00:35:57.947                              *
* 00:46:27.284                  : en:00:46:27.284                              *
* 00:54:34.771                  : en:00:54:34.771                              *
* 01:04:59.562                  : en:01:04:59.562                              *
* 01:12:53.077                  : en:01:12:53.077                              *
* 01:23:08.901                  : en:01:23:08.901                              *
* 01:32:34.132                  : en:01:32:34.132                              *
* 01:42:53.584                  : en:01:42:53.584                              *
* 01:45:46.215                  : en:01:45:46.215                              *

================================================================================
*                           INFORMATION SUR LE POST                            *
================================================================================
* Taille des donnees sans par2..: 10.32 Go                                     *
* Nombre de rar.................: 74                                           *
* Taille des rar................: 143.19 Mo                                    *
* Par2..........................: 10%                                          *
* Nombre de bloc de recuperation: 577                                          *
* Taille d'un bloc..............: 1.83 Mo                                      *
Cloud Download
Datum
12.03.2015 12:26:19
Größe
11.74 GB
Uploader
[email protected] (patou)
Newsgroup
alt.binaries.mom