Wir haben eine neue Vorabversion (BETA!)

Klicke hier um die neue Vorabversion zu testen.

Love.the.Hard.Way.2001.DVDrip.x264 "Love.the.Hard.Way.2001.r01"
Wenn beim Streamen kein Ton abspielt wird, liegt das vermutlich am benutzen Audiocodec, der von Deinem Gerät nicht erkannt wird. Versuche einen anderen Browser oder lade die Originaldatei im 'Dateien'-Reiter auf Dein Gerät und öffne sie mit einem installierten Player.
Lass auch du deine Bewertung da!
Love.the.Hard.Way.2001.DVDrip.x264-OlFa

R | 1h 44min | Drama, Crime, Romance | 27 March 2003 (Germany)
https://www.imdb.com/title/tt0263671/
Rating: 6.4/10 - 2,304 votes

The story of a petty thief who meets an innocent young woman and brings 
her into his world of crime while she teaches him the lessons of enjoying 
life and being loved.

Director: Peter Sehr
Stars: Adrien Brody, Charlotte Ayanna, Jon Seda 

source: retail NTSC DVD anamorphic playback.
No subs on disk. DVD AR is 1.73 not 1.85 per IMDB.

Format                                   : Matroska
Format version                           : Version 4 / Version 2
File size                                : 1.31 GiB
Duration                                 : 1h 44mn
Overall bit rate                         : 1 800 Kbps
Encoded date                             : UTC 2019-03-09 17:16:33
Writing application                      : Lavf57.20.100
Writing library                          : Lavf57.20.100

Video
ID                                       : 1
Format                                   : AVC
Format/Info                              : Advanced Video Codec
Format profile                           : [email protected]
Format settings, CABAC                   : Yes
Format settings, ReFrames                : 2 frames
Codec ID                                 : V_MPEG4/ISO/AVC
Duration                                 : 1h 44mn
Bit rate                                 : 1 350 Kbps
Width                                    : 832 pixels
Height                                   : 480 pixels
Display aspect ratio                     : 1.733
Frame rate mode                          : Constant
Frame rate                               : 23.976 fps
Color space                              : YUV
Chroma subsampling                       : 4:2:0
Bit depth                                : 8 bits
Scan type                                : Progressive
Bits/(Pixel*Frame)                       : 0.141
Stream size                              : 981 MiB (73%)
Writing library                          : x264 core 148 r2638
Default                                  : Yes
Forced                                   : No

Audio
ID                                       : 2
Format                                   : AC-3
Format/Info                              : Audio Coding 3
Mode extension                           : CM (complete main)
Format settings, Endianness              : Big
Codec ID                                 : A_AC3
Duration                                 : 1h 44mn
Bit rate mode                            : Constant
Bit rate                                 : 448 Kbps
Channel(s)                               : 6 channels
Channel positions                        : Front: L C R, Side: L R, LFE
Sampling rate                            : 48.0 KHz
Bit depth                                : 16 bits
Compression mode                         : Lossy
Delay relative to video                  : 22ms
Stream size                              : 334 MiB (25%)
Default                                  : Yes
Forced                                   : No
Cloud Download
Datum
10.03.2019 06:56:00
Größe
1.52 GB
Uploader
[email protected] (Par Yer Rars)
Newsgroup
alt.binaries.movies.xvid