FBI.S01E05.720p.AMZN.WEB-DL.DDP5.1.H.264-NTb
Wenn beim Streamen kein Ton abspielt wird, liegt das vermutlich am benutzen Audiocodec, der von Deinem Gerät nicht erkannt wird. Versuche einen anderen Browser oder lade die Originaldatei im 'Dateien'-Reiter auf Dein Gerät und öffne sie mit einem installierten Player.
Lass auch du deine Bewertung da!
General
Unique ID                                : 203406588038266919901008496860094935037 (0x9906AF12AF3EFB8F9103F90274FE2FFD)
Complete name                            : FBI.S01E05.Doomsday.720p.AMZN.WEB-DL.DDP5.1.H.264-NTb.mkv
Format                                   : Matroska
Format version                           : Version 4
File size                                : 1.08 GiB
Duration                                 : 43 min 43 s
Overall bit rate                         : 3 532 kb/s
Encoded date                             : UTC 2018-10-24 10:39:16
Writing application                      : mkvmerge v13.0.0 ('The Juggler') 64bit
Writing library                          : libebml v1.3.4 + libmatroska v1.4.5

Video
ID                                       : 1
Format                                   : AVC
Format/Info                              : Advanced Video Codec
Format profile                           : [email protected]
Format settings                          : CABAC / 5 Ref Frames
Format settings, CABAC                   : Yes
Format settings, ReFrames                : 5 frames
Codec ID                                 : V_MPEG4/ISO/AVC
Duration                                 : 43 min 43 s
Bit rate                                 : 2 890 kb/s
Width                                    : 1 280 pixels
Height                                   : 720 pixels
Display aspect ratio                     : 16:9
Frame rate mode                          : Constant
Frame rate                               : 24.000 FPS
Color space                              : YUV
Chroma subsampling                       : 4:2:0
Bit depth                                : 8 bits
Scan type                                : Progressive
Bits/(Pixel*Frame)                       : 0.131
Stream size                              : 904 MiB (82%)
Default                                  : Yes
Forced                                   : No
Color range                              : Limited
Color primaries                          : BT.709
Transfer characteristics                 : BT.709
Matrix coefficients                      : BT.709

Audio
ID                                       : 2
Format                                   : E-AC-3
Format/Info                              : Enhanced AC-3
Commercial name                          : Dolby Digital Plus
Codec ID                                 : A_EAC3
Duration                                 : 43 min 43 s
Bit rate mode                            : Constant
Bit rate                                 : 640 kb/s
Channel(s)                               : 6 channels
Channel layout                           : L R C LFE Ls Rs
Sampling rate                            : 48.0 kHz
Frame rate                               : 31.250 FPS (1536 SPF)
Compression mode                         : Lossy
Stream size                              : 200 MiB (18%)
Language                                 : English
Service kind                             : Complete Main
Default                                  : Yes
Forced                                   : No

Text #1
ID                                       : 3
Format                                   : UTF-8
Codec ID                                 : S_TEXT/UTF8
Codec ID/Info                            : UTF-8 Plain Text
Duration                                 : 42 min 57 s
Bit rate                                 : 89 b/s
Count of elements                        : 1042
Stream size                              : 28.2 KiB (0%)
Language                                 : English
Default                                  : No
Forced                                   : No

Text #2
ID                                       : 4
Format                                   : UTF-8
Codec ID                                 : S_TEXT/UTF8
Codec ID/Info                            : UTF-8 Plain Text
Duration                                 : 43 min 36 s
Bit rate                                 : 93 b/s
Count of elements                        : 1130
Stream size                              : 29.9 KiB (0%)
Title                                    : SDH
Language                                 : English
Default                                  : No
Forced                                   : No


Cloud Download
Datum
24.10.2018 18:31:56
Größe
1.25 GB
Uploader
[email protected] (SP)
Newsgroup
alt.binaries.hdtv.x264