Wir haben eine neue Vorabversion (BETA!)

Klicke hier um die neue Vorabversion zu testen.

Robin.and.Marian.1976.720p.BluRay.H264.AAC "Robin.and.Marian.1976.m720p.r04"
Wenn beim Streamen kein Ton abspielt wird, liegt das vermutlich am benutzen Audiocodec, der von Deinem Gerät nicht erkannt wird. Versuche einen anderen Browser oder lade die Originaldatei im 'Dateien'-Reiter auf Dein Gerät und öffne sie mit einem installierten Player.
Lass auch du deine Bewertung da!
Robin.and.Marian.1976.m720p

https://www.imdb.com/title/tt0075147/
Rating: 6.6/10 - 10,102 votes
Robin Hood, aging none too gracefully, returns exhausted from the Crusades 
to woo and win Maid Marian one last time. ... 

Stars: Sean Connery, Audrey Hepburn, Robert Shaw. 

Format                                   : MPEG-4
Format profile                           : Base Media
Codec ID                                 : isom
File size                                : 1.29 GiB
Duration                                 : 1h 46mn
Overall bit rate                         : 1 731 Kbps
Movie name                               : Robin.and.Marian.1976.720p.BluRay.H264.AAC-RARBG
Encoded date                             : UTC 2018-12-15 08:58:31
Tagged date                              : UTC 2018-12-15 08:58:31
Writing application                      : Lavf58.20.100
Comment                                  : Robin.and.Marian.1976.720p.BluRay.H264.AAC-RARBG

Video
ID                                       : 1
Format                                   : AVC
Format/Info                              : Advanced Video Codec
Format profile                           : [email protected]
Format settings, CABAC                   : Yes
Format settings, ReFrames                : 4 frames
Codec ID                                 : avc1
Codec ID/Info                            : Advanced Video Coding
Duration                                 : 1h 46mn
Bit rate                                 : 1 500 Kbps
Width                                    : 1 280 pixels
Height                                   : 688 pixels
Display aspect ratio                     : 1.85:1
Frame rate mode                          : Constant
Frame rate                               : 23.976 fps
Color space                              : YUV
Chroma subsampling                       : 4:2:0
Bit depth                                : 8 bits
Scan type                                : Progressive
Bits/(Pixel*Frame)                       : 0.071
Stream size                              : 1.12 GiB (87%)
Writing library                          : x264 core 152 r2851M ba24899
Encoded date                             : UTC 2018-12-15 08:58:31
Tagged date                              : UTC 2018-12-15 08:58:31

Audio
ID                                       : 2
Format                                   : AAC
Format/Info                              : Advanced Audio Codec
Format profile                           : LC
Codec ID                                 : 40
Duration                                 : 1h 46mn
Bit rate mode                            : Constant
Bit rate                                 : 224 Kbps
Channel(s)                               : 2 channels
Channel positions                        : Front: L R
Sampling rate                            : 48.0 KHz
Compression mode                         : Lossy
Stream size                              : 171 MiB (13%)
Language                                 : English
Encoded date                             : UTC 2018-12-15 08:58:31
Tagged date                              : UTC 2018-12-15 08:58:31

Cloud Download
Datum
16.12.2018 15:58:00
Größe
1.51 GB
Uploader
[email protected] (Par Yer Rars)
Newsgroup
alt.binaries.movies.xvid