Wir haben eine neue Vorabversion (BETA!)

Klicke hier um die neue Vorabversion zu testen.

MasterChef.US.S09E12.REPACK.720p.AMZN.WEB-DL.DDP2.0.H.264-NTb
Wenn beim Streamen kein Ton abspielt wird, liegt das vermutlich am benutzen Audiocodec, der von Deinem Gerät nicht erkannt wird. Versuche einen anderen Browser oder lade die Originaldatei im 'Dateien'-Reiter auf Dein Gerät und öffne sie mit einem installierten Player.
Lass auch du deine Bewertung da!
General
Unique ID                                : 141953769571943302760320358323598769885 (0x6ACB4D329FFB66FF3DFFA0DA0791BEDD)
Complete name                            : MasterChef.US.S09E12.Frying.Tonight.REPACK.720p.AMZN.WEB-DL.DDP2.0.H.264-NTb.mkv
Format                                   : Matroska
Format version                           : Version 4 / Version 2
File size                                : 1.12 GiB
Duration                                 : 41mn 28s
Overall bit rate                         : 3 875 Kbps
Encoded date                             : UTC 2018-08-12 22:33:49
Writing application                      : mkvmerge v25.0.0 ('Prog Noir') 64-bit
Writing library                          : libebml v1.3.6 + libmatroska v1.4.9

Video
ID                                       : 1
Format                                   : AVC
Format/Info                              : Advanced Video Codec
Format profile                           : [email protected]
Format settings, CABAC                   : Yes
Format settings, ReFrames                : 5 frames
Codec ID                                 : V_MPEG4/ISO/AVC
Duration                                 : 41mn 28s
Bit rate                                 : 3 649 Kbps
Width                                    : 1 280 pixels
Height                                   : 720 pixels
Display aspect ratio                     : 16:9
Frame rate mode                          : Constant
Frame rate                               : 23.976 (24000/1001) fps
Color space                              : YUV
Chroma subsampling                       : 4:2:0
Bit depth                                : 8 bits
Scan type                                : Progressive
Bits/(Pixel*Frame)                       : 0.165
Stream size                              : 1.06 GiB (94%)
Language                                 : English
Default                                  : Yes
Forced                                   : No
Color range                              : Limited
Color primaries                          : BT.709
Transfer characteristics                 : BT.709
Matrix coefficients                      : BT.709

Audio
ID                                       : 2
Format                                   : E-AC-3
Format/Info                              : Audio Coding 3
Format settings, Endianness              : Big
Codec ID                                 : A_EAC3
Duration                                 : 41mn 28s
Bit rate mode                            : Constant
Bit rate                                 : 224 Kbps
Channel(s)                               : 2 channels
Channel positions                        : Front: L R
Sampling rate                            : 48.0 KHz
Frame rate                               : 187.500 fps (256 spf)
Compression mode                         : Lossy
Delay relative to video                  : 22ms
Stream size                              : 66.4 MiB (6%)
Language                                 : English
Default                                  : Yes
Forced                                   : No

Text
ID                                       : 3
Format                                   : UTF-8
Codec ID                                 : S_TEXT/UTF8
Codec ID/Info                            : UTF-8 Plain Text
Duration                                 : 41mn 19s
Bit rate                                 : 114 bps
Count of elements                        : 937
Stream size                              : 34.7 KiB (0%)
Title                                    : SDH
Language                                 : English
Default                                  : No
Forced                                   : No


Cloud Download
Datum
13.08.2018 21:00:09
Größe
1.3 GB
Uploader
[email protected] (SP)
Newsgroup
alt.binaries.hdtv.x264